<?xml version="1.0" standalone="no"?>
<!DOCTYPE svg PUBLIC "-//W3C//DTD SVG 1.1//EN" "http://www.w3.org/Graphics/SVG/1.1/DTD/svg11.dtd" >
<svg xmlns="http://www.w3.org/2000/svg">
<metadata>Generated by IcoMoon</metadata>
<defs>
<font id="icomoon" horiz-adv-x="1024">
<font-face units-per-em="1024" ascent="960" descent="-64" />
<missing-glyph horiz-adv-x="1024" />
<glyph unicode="&#x20;" horiz-adv-x="512" d="" />
<glyph unicode="&#xe900;" glyph-name="arrow_down_large" d="M989.867 663.040l-477.867-477.867-477.867 477.867 47.787 47.787 430.080-428.373 428.373 428.373 49.493-47.787z" />
<glyph unicode="&#xe901;" glyph-name="arrow_down_medium" d="M512 267.093l-291.84 290.133 47.787 47.787 244.053-242.347 242.347 242.347 47.787-47.787-290.133-290.133z" />
<glyph unicode="&#xe902;" glyph-name="arrow_down_small" d="M512 323.413l-204.8 204.8 30.72 30.72 174.080-175.787 174.080 174.080 30.72-30.72-204.8-203.093z" />
<glyph unicode="&#xe903;" glyph-name="arrow_download_large" d="M918.187 34.987v-68.267h-812.373v68.267h812.373zM916.48 529.92l-49.493 46.080-320.853-349.867v699.733h-68.267v-698.027l-320.853 349.867-49.493-46.080 404.48-442.027 404.48 440.32z" />
<glyph unicode="&#xe904;" glyph-name="arrow_download_medium" d="M757.76 205.653v-68.267h-491.52v68.267h491.52zM757.76 473.6l-47.787 47.787-165.547-165.547v368.64h-68.267v-366.933l-165.547 165.547-47.787-47.787 247.467-249.173 247.467 247.467z" />
<glyph unicode="&#xe905;" glyph-name="arrow_download_small" d="M686.080 234.667h-348.16v42.667h348.16v-42.667zM686.080 471.893l-174.080-174.080-174.080 174.080 30.72 30.72 122.88-122.88v261.12h42.667v-261.12l122.88 122.88 29.013-30.72z" />
<glyph unicode="&#xe906;" glyph-name="arrow_external_large" d="M885.76 268.8v503.467l-756.053-756.053-47.787 47.787 754.347 757.76h-501.76v68.267h617.813v-619.52h-66.56z" />
<glyph unicode="&#xe907;" glyph-name="arrow_external_medium" d="M718.507 342.187v262.827l-421.547-421.547-47.787 47.787 421.547 421.547h-262.827v68.267h377.173v-378.88h-66.56z" />
<glyph unicode="&#xe908;" glyph-name="arrow_external_small" d="M660.48 372.907v192.853l-303.787-303.787-30.72 30.72 305.493 303.787h-192.853v42.667h266.24v-266.24h-44.373z" />
<glyph unicode="&#xe909;" glyph-name="arrow_left_large" d="M715.093-29.867l-477.867 477.867 477.867 477.867 47.787-47.787-428.373-430.080 428.373-428.373-47.787-49.493z" />
<glyph unicode="&#xe90a;" glyph-name="arrow_left_medium" d="M621.227 156.16l-290.133 291.84 291.84 291.84 47.787-47.787-244.053-244.053 242.347-242.347-47.787-49.493z" />
<glyph unicode="&#xe90b;" glyph-name="arrow_left_small" d="M592.213 243.2l-204.8 204.8 204.8 204.8 30.72-30.72-175.787-174.080 174.080-174.080-29.013-30.72z" />
<glyph unicode="&#xe90c;" glyph-name="arrow_right_large" d="M308.907-29.867l-47.787 47.787 428.373 430.080-428.373 428.373 47.787 49.493 477.867-477.867-477.867-477.867z" />
<glyph unicode="&#xe90d;" glyph-name="arrow_right_medium" d="M402.773 156.16l-47.787 47.787 242.347 244.053-242.347 242.347 47.787 47.787 290.133-290.133-290.133-291.84z" />
<glyph unicode="&#xe90e;" glyph-name="arrow_right_small" d="M431.787 243.2l-30.72 30.72 175.787 174.080-174.080 174.080 30.72 30.72 204.8-204.8-206.507-204.8z" />
<glyph unicode="&#xe90f;" glyph-name="arrow_up_large" d="M989.867 232.96l-47.787-47.787-430.080 428.373-428.373-428.373-49.493 47.787 477.867 477.867 477.867-477.867z" />
<glyph unicode="&#xe910;" glyph-name="arrow_up_medium" d="M754.347 290.987l-242.347 242.347-242.347-242.347-47.787 47.787 290.133 290.133 291.84-291.84-49.493-46.080z" />
<glyph unicode="&#xe911;" glyph-name="arrow_up_small" d="M716.8 360.96l-30.72-30.72-174.080 174.080-174.080-174.080-30.72 30.72 204.8 204.8 204.8-204.8z" />
<glyph unicode="&#xe912;" glyph-name="arrow_upload_large" d="M918.187 45.227v-68.267h-810.667v68.267h810.667zM477.867 797.867v-698.027h68.267v698.027l320.853-349.867 49.493 46.080-404.48 442.027-404.48-442.027 49.493-46.080 320.853 349.867z" />
<glyph unicode="&#xe913;" glyph-name="arrow_upload_medium" d="M266.24 229.547h493.227v-68.267h-493.227v68.267zM477.867 616.96v-366.933h68.267v366.933l165.547-165.547 47.787 47.787-247.467 249.173-247.467-247.467 47.787-47.787 165.547 163.84z" />
<glyph unicode="&#xe914;" glyph-name="arrow_upload_small" d="M337.92 292.693h348.16v-42.667h-348.16v42.667zM489.813 574.293v-261.12h42.667v261.12l122.88-122.88 30.72 30.72-174.080 172.373-174.080-172.373 30.72-30.72 121.173 122.88z" />
<glyph unicode="&#xe915;" glyph-name="business_card" d="M738.987 444.587h-177.493v42.667h177.493v-42.667zM738.987 577.707h-177.493v-42.667h177.493v42.667zM435.2 591.36c-42.667 0-76.8-34.133-76.8-76.8s34.133-76.8 76.8-76.8 76.8 34.133 76.8 76.8-35.84 76.8-76.8 76.8zM435.2 424.107c-76.8 0-138.24-61.44-138.24-138.24h278.187c-1.707 75.093-63.147 138.24-139.947 138.24z" />
<glyph unicode="&#xe916;" glyph-name="calendar" d="M544.427 401.92c0-17.067-15.36-32.427-32.427-32.427s-32.427 15.36-32.427 32.427c0 17.067 15.36 32.427 32.427 32.427 18.773 0 32.427-13.653 32.427-32.427zM409.6 434.347c-17.067 0-32.427-15.36-32.427-32.427s15.36-32.427 32.427-32.427c17.067 0 32.427 15.36 32.427 32.427 0 18.773-13.653 32.427-32.427 32.427zM614.4 434.347c-17.067 0-32.427-15.36-32.427-32.427s15.36-32.427 32.427-32.427c17.067 0 32.427 15.36 32.427 32.427 0 18.773-15.36 32.427-32.427 32.427zM512 338.773c-17.067 0-32.427-15.36-32.427-32.427s15.36-32.427 32.427-32.427c17.067 0 32.427 15.36 32.427 32.427s-13.653 32.427-32.427 32.427zM409.6 338.773c-17.067 0-32.427-15.36-32.427-32.427s15.36-32.427 32.427-32.427c17.067 0 32.427 15.36 32.427 32.427s-13.653 32.427-32.427 32.427zM749.227 470.187v-206.507c0-35.84-29.013-66.56-66.56-66.56h-341.333c-35.84 0-66.56 29.013-66.56 66.56v288.427c0 35.84 29.013 66.56 66.56 66.56h61.44v37.547h30.72v-37.547h157.013v35.84h30.72v-35.84h61.44c35.84 0 66.56-29.013 66.56-66.56v-81.92zM305.493 552.107v-51.2h413.013v51.2c0 20.48-17.067 35.84-35.84 35.84h-61.44v-58.027h-30.72v58.027h-157.013v-56.32h-30.72v56.32h-61.44c-20.48 0-35.84-15.36-35.84-35.84zM718.507 470.187h-413.013v-206.507c0-20.48 17.067-35.84 35.84-35.84h341.333c20.48 0 35.84 17.067 35.84 35.84v206.507z" />
<glyph unicode="&#xe917;" glyph-name="close_large" d="M539.307 434.347l122.88-122.88-20.48-20.48-122.88 122.88-122.88-122.88-22.187 20.48 122.88 122.88-122.88 122.88 20.48 20.48 122.88-122.88 122.88 122.88 20.48-20.48-121.173-122.88z" />
<glyph unicode="&#xe918;" glyph-name="close_small" d="M529.067 436.053l75.093-75.093-11.947-11.947-75.093 75.093-75.093-75.093-11.947 11.947 75.093 75.093-75.093 75.093 11.947 11.947 75.093-75.093 75.093 75.093 11.947-11.947-75.093-75.093z" />
<glyph unicode="&#xe919;" glyph-name="download_Audio" d="M595.627 913.92h-257.707c-75.093 0-134.827-59.733-134.827-134.827v-677.547c0-75.093 59.733-134.827 134.827-134.827h349.867c78.507 0 134.827 68.267 134.827 163.84v575.147l-226.987 208.213zM604.16 849.067l163.84-151.893h-63.147c-56.32 0-100.693 42.667-100.693 95.573v56.32zM778.24 132.267c0-73.387-35.84-121.173-92.16-121.173h-348.16c-51.2 0-92.16 40.96-92.16 92.16v675.84c0 51.2 40.96 92.16 92.16 92.16h223.573v-78.507c0-76.8 64.853-138.24 143.36-138.24h73.387v-522.24zM512 139.093l-119.467 119.467 30.72 30.72 88.747-88.747 88.747 88.747 30.72-30.72-119.467-119.467zM634.88 70.827h-244.053v42.667h244.053v-42.667zM401.067 569.173h-52.907v-148.48h52.907l73.387-73.387h42.667v296.96h-42.667l-73.387-75.093zM542.72 628.907v-51.2c46.080 0 81.92-37.547 81.92-81.92 0-46.080-37.547-81.92-81.92-81.92v-51.2c73.387 0 133.12 59.733 133.12 133.12s-59.733 133.12-133.12 133.12zM568.32 495.787c0 13.653-11.947 25.6-25.6 25.6v-51.2c13.653 0 25.6 11.947 25.6 25.6z" />
<glyph unicode="&#xe91a;" glyph-name="download_DOC" d="M595.627 913.92h-257.707c-75.093 0-134.827-59.733-134.827-134.827v-677.547c0-75.093 59.733-134.827 134.827-134.827h349.867c78.507 0 134.827 68.267 134.827 163.84v575.147l-226.987 208.213zM604.16 849.067l163.84-151.893h-63.147c-56.32 0-100.693 42.667-100.693 95.573v56.32zM778.24 132.267c0-73.387-35.84-121.173-92.16-121.173h-348.16c-51.2 0-92.16 40.96-92.16 92.16v675.84c0 51.2 40.96 92.16 92.16 92.16h223.573v-78.507c0-76.8 64.853-138.24 143.36-138.24h73.387v-522.24zM512 139.093l-119.467 119.467 30.72 30.72 88.747-88.747 88.747 88.747 30.72-30.72-119.467-119.467zM634.88 70.827h-244.053v42.667h244.053v-42.667zM307.2 576h42.667c47.787 0 88.747-15.36 88.747-76.8s-42.667-76.8-88.747-76.8h-42.667v153.6zM337.92 446.293h17.067c25.6 0 51.2 18.773 51.2 52.907s-25.6 52.907-51.2 52.907h-17.067v-105.813zM527.36 579.413c47.787 0 75.093-32.427 75.093-80.213s-27.307-80.213-75.093-80.213c-49.493 0-75.093 32.427-75.093 80.213s25.6 80.213 75.093 80.213zM527.36 442.88c32.427 0 42.667 29.013 42.667 56.32s-11.947 54.613-42.667 54.613-42.667-27.307-42.667-54.613c-1.707-27.307 10.24-56.32 42.667-56.32zM735.573 424.107c-11.947-3.413-23.893-5.12-35.84-5.12-49.493 0-85.333 25.6-85.333 76.8 0 52.907 32.427 81.92 85.333 81.92 10.24 0 23.893-1.707 35.84-6.827l-1.707-25.6c-11.947 6.827-22.187 8.533-34.133 8.533-32.427 0-51.2-23.893-51.2-56.32 0-30.72 18.773-54.613 52.907-54.613 11.947 0 27.307 3.413 34.133 6.827v-25.6z" />
<glyph unicode="&#xe91b;" glyph-name="download_JPG" d="M595.627 913.92h-257.707c-75.093 0-134.827-59.733-134.827-134.827v-677.547c0-75.093 59.733-134.827 134.827-134.827h349.867c78.507 0 134.827 68.267 134.827 163.84v575.147l-226.987 208.213zM604.16 849.067l163.84-151.893h-63.147c-56.32 0-100.693 42.667-100.693 95.573v56.32zM778.24 132.267c0-73.387-35.84-121.173-92.16-121.173h-348.16c-51.2 0-92.16 40.96-92.16 92.16v675.84c0 51.2 40.96 92.16 92.16 92.16h223.573v-78.507c0-76.8 64.853-138.24 143.36-138.24h73.387v-522.24zM512 139.093l-119.467 119.467 30.72 30.72 88.747-88.747 88.747 88.747 30.72-30.72-119.467-119.467zM634.88 70.827h-244.053v42.667h244.053v-42.667zM336.213 451.413c3.413-1.707 8.533-3.413 15.36-3.413 20.48 0 20.48 15.36 20.48 27.307v102.4h30.72v-117.76c0-17.067-10.24-39.253-42.667-39.253-8.533 0-15.36 0-23.893 3.413v27.307zM431.787 579.413h39.253c34.133 0 64.853-10.24 64.853-46.080s-25.6-49.493-59.733-49.493h-13.653v-58.027h-30.72v153.6zM462.507 507.733h10.24c15.36 0 29.013 5.12 29.013 23.893s-13.653 23.893-29.013 23.893h-10.24v-47.787zM675.84 548.693c-11.947 5.12-27.307 8.533-39.253 8.533-35.84 0-56.32-23.893-56.32-56.32 0-30.72 18.773-54.613 52.907-54.613 8.533 0 15.36 1.707 20.48 1.707v40.96h-32.427v23.893h61.44v-83.627c-17.067-5.12-34.133-8.533-49.493-8.533-49.493 0-85.333 25.6-85.333 76.8 0 52.907 32.427 81.92 85.333 81.92 18.773 0 32.427-1.707 46.080-6.827l-3.413-23.893z" />
<glyph unicode="&#xe91c;" glyph-name="download_neutral" d="M631.467 258.56l-119.467-119.467-119.467 119.467 30.72 30.72 88.747-88.747 88.747 88.747 30.72-30.72zM820.907 705.707v-573.44c0-97.28-54.613-163.84-134.827-163.84h-348.16c-75.093 0-134.827 59.733-134.827 134.827v675.84c0 75.093 59.733 134.827 134.827 134.827h257.707l225.28-208.213zM604.16 792.747c0-52.907 44.373-95.573 100.693-95.573h63.147l-163.84 151.893v-56.32zM778.24 654.507h-73.387c-78.507 0-143.36 63.147-143.36 138.24v78.507h-223.573c-51.2 0-92.16-40.96-92.16-92.16v-677.547c0-51.2 40.96-92.16 92.16-92.16h349.867c56.32 0 92.16 47.787 92.16 121.173v523.947zM390.827 70.827h244.053v42.667h-244.053v-42.667zM320.853 529.92h384v42.667h-384v-42.667zM320.853 424.107h384v42.667h-384v-42.667z" />
<glyph unicode="&#xe91d;" glyph-name="download_PDF" d="M384 579.413h-39.253v-155.307h30.72v58.027h13.653c34.133 0 59.733 13.653 59.733 49.493 0 37.547-32.427 47.787-64.853 47.787zM385.707 507.733h-10.24v47.787h10.24c15.36 0 29.013-6.827 29.013-23.893 1.707-18.773-13.653-23.893-29.013-23.893zM506.88 579.413h-42.667v-155.307h42.667c47.787 0 88.747 15.36 88.747 76.8s-40.96 78.507-88.747 78.507zM513.707 448h-17.067v105.813h17.067c25.6 0 51.2-18.773 51.2-52.907s-25.6-52.907-51.2-52.907zM616.107 579.413h85.333v-23.893h-54.613v-39.253h52.907v-23.893h-52.907v-68.267h-30.72v155.307zM512 139.093l-119.467 119.467 30.72 30.72 88.747-88.747 88.747 88.747 30.72-30.72-119.467-119.467zM634.88 113.493h-244.053v-42.667h244.053v42.667zM595.627 913.92h-257.707c-75.093 0-134.827-59.733-134.827-134.827v-677.547c0-75.093 59.733-134.827 134.827-134.827h349.867c78.507 0 134.827 68.267 134.827 163.84v575.147l-226.987 208.213zM604.16 849.067l163.84-151.893h-63.147c-56.32 0-100.693 42.667-100.693 95.573v56.32zM778.24 132.267c0-73.387-35.84-121.173-92.16-121.173h-348.16c-51.2 0-92.16 40.96-92.16 92.16v675.84c0 51.2 40.96 92.16 92.16 92.16h223.573v-78.507c0-76.8 64.853-138.24 143.36-138.24h73.387v-522.24z" />
<glyph unicode="&#xe91e;" glyph-name="download_PPT" d="M595.627 913.92h-257.707c-75.093 0-134.827-59.733-134.827-134.827v-677.547c0-75.093 59.733-134.827 134.827-134.827h349.867c78.507 0 134.827 68.267 134.827 163.84v575.147l-226.987 208.213zM604.16 849.067l163.84-151.893h-63.147c-56.32 0-100.693 42.667-100.693 95.573v56.32zM778.24 132.267c0-73.387-35.84-121.173-92.16-121.173h-348.16c-51.2 0-92.16 40.96-92.16 92.16v675.84c0 51.2 40.96 92.16 92.16 92.16h223.573v-78.507c0-76.8 64.853-138.24 143.36-138.24h73.387v-522.24zM512 139.093l-119.467 119.467 30.72 30.72 88.747-88.747 88.747 88.747 30.72-30.72-119.467-119.467zM634.88 70.827h-244.053v42.667h244.053v-42.667zM349.867 576h39.253c34.133 0 64.853-10.24 64.853-46.080s-25.6-49.493-59.733-49.493h-13.653v-58.027h-30.72v153.6zM380.587 504.32h10.24c15.36 0 29.013 5.12 29.013 23.893s-13.653 23.893-29.013 23.893h-10.24v-47.787zM464.213 576h39.253c34.133 0 64.853-10.24 64.853-46.080s-25.6-49.493-59.733-49.493h-13.653v-58.027h-30.72v153.6zM494.933 504.32h10.24c15.36 0 29.013 5.12 29.013 23.893s-13.653 23.893-29.013 23.893h-10.24v-47.787zM614.4 552.107h-44.373v23.893h119.467v-23.893h-44.373v-129.707h-30.72v129.707z" />
<glyph unicode="&#xe91f;" glyph-name="download_Video_V1" d="M595.627 913.92h-257.707c-75.093 0-134.827-59.733-134.827-134.827v-677.547c0-75.093 59.733-134.827 134.827-134.827h349.867c78.507 0 134.827 68.267 134.827 163.84v575.147l-226.987 208.213zM604.16 849.067l163.84-151.893h-63.147c-56.32 0-100.693 42.667-100.693 95.573v56.32zM778.24 132.267c0-73.387-35.84-121.173-92.16-121.173h-348.16c-51.2 0-92.16 40.96-92.16 92.16v675.84c0 51.2 40.96 92.16 92.16 92.16h223.573v-78.507c0-76.8 64.853-138.24 143.36-138.24h73.387v-522.24zM512 139.093l-119.467 119.467 30.72 30.72 88.747-88.747 88.747 88.747 30.72-30.72-119.467-119.467zM634.88 70.827h-244.053v42.667h244.053v-42.667zM616.107 616.96h-208.213c-39.253 0-69.973-32.427-69.973-69.973v-102.4c0-39.253 32.427-69.973 69.973-69.973h208.213c39.253 0 69.973 32.427 69.973 69.973v102.4c1.707 39.253-30.72 69.973-69.973 69.973zM576.853 488.96l-104.107-59.733c-1.707 0-3.413-1.707-5.12-1.707s-3.413 0-3.413 1.707-3.413 3.413-3.413 6.827v119.467c0 3.413 1.707 5.12 3.413 6.827 3.413 1.707 5.12 1.707 8.533 0l104.107-59.733c3.413-1.707 5.12-5.12 5.12-6.827s-1.707-5.12-5.12-6.827z" />
<glyph unicode="&#xe920;" glyph-name="download_Video_V2" d="M595.627 913.92h-257.707c-75.093 0-134.827-59.733-134.827-134.827v-677.547c0-75.093 59.733-134.827 134.827-134.827h349.867c78.507 0 134.827 68.267 134.827 163.84v575.147l-226.987 208.213zM604.16 849.067l163.84-151.893h-63.147c-56.32 0-100.693 42.667-100.693 95.573v56.32zM778.24 132.267c0-73.387-35.84-121.173-92.16-121.173h-348.16c-51.2 0-92.16 40.96-92.16 92.16v675.84c0 51.2 40.96 92.16 92.16 92.16h223.573v-78.507c0-76.8 64.853-138.24 143.36-138.24h73.387v-522.24zM512 139.093l-119.467 119.467 30.72 30.72 88.747-88.747 88.747 88.747 30.72-30.72-119.467-119.467zM634.88 70.827h-244.053v42.667h244.053v-42.667zM699.733 579.413c-1.707 1.707-5.12 1.707-6.827 0l-71.68-42.667v20.48c0 23.893-18.773 42.667-42.667 42.667h-216.747c-23.893 0-42.667-18.773-42.667-42.667v-124.587c0-23.893 18.773-42.667 42.667-42.667h215.040c23.893 0 42.667 18.773 42.667 42.667v20.48l71.68-40.96c1.707 0 1.707-1.707 3.413-1.707s3.413 0 3.413 1.707 3.413 3.413 3.413 6.827v153.6c3.413 3.413 1.707 5.12-1.707 6.827z" />
<glyph unicode="&#xe921;" glyph-name="download_XLS" d="M595.627 913.92h-257.707c-75.093 0-134.827-59.733-134.827-134.827v-677.547c0-75.093 59.733-134.827 134.827-134.827h349.867c78.507 0 134.827 68.267 134.827 163.84v575.147l-226.987 208.213zM604.16 849.067l163.84-151.893h-63.147c-56.32 0-100.693 42.667-100.693 95.573v56.32zM778.24 132.267c0-73.387-35.84-121.173-92.16-121.173h-348.16c-51.2 0-92.16 40.96-92.16 92.16v675.84c0 51.2 40.96 92.16 92.16 92.16h223.573v-78.507c0-76.8 64.853-138.24 143.36-138.24h73.387v-522.24zM512 139.093l-119.467 119.467 30.72 30.72 88.747-88.747 88.747 88.747 30.72-30.72-119.467-119.467zM634.88 70.827h-244.053v42.667h244.053v-42.667zM385.707 502.613l-46.080 75.093h35.84l32.427-54.613 32.427 54.613h34.133l-46.080-75.093 51.2-80.213h-35.84l-37.547 59.733-35.84-59.733h-35.84l51.2 80.213zM489.813 576h30.72v-129.707h59.733v-23.893h-90.453v153.6zM677.547 546.987c-10.24 3.413-20.48 6.827-30.72 6.827s-23.893-5.12-23.893-22.187c0-27.307 68.267-15.36 68.267-68.267 0-34.133-27.307-46.080-58.027-46.080-17.067 0-23.893 1.707-39.253 6.827l3.413 27.307c10.24-5.12 22.187-10.24 35.84-10.24 11.947 0 27.307 6.827 27.307 20.48 0 29.013-68.267 17.067-68.267 68.267 0 34.133 27.307 47.787 54.613 47.787 13.653 0 25.6-1.707 37.547-5.12l-6.827-25.6z" />
<glyph unicode="&#xe922;" glyph-name="download_ZIP" d="M595.627 913.92h-257.707c-75.093 0-134.827-59.733-134.827-134.827v-677.547c0-75.093 59.733-134.827 134.827-134.827h349.867c78.507 0 134.827 68.267 134.827 163.84v575.147l-226.987 208.213zM604.16 849.067l163.84-151.893h-63.147c-56.32 0-100.693 42.667-100.693 95.573v56.32zM778.24 132.267c0-73.387-35.84-121.173-92.16-121.173h-348.16c-51.2 0-92.16 40.96-92.16 92.16v675.84c0 51.2 40.96 92.16 92.16 92.16h223.573v-78.507c0-76.8 64.853-138.24 143.36-138.24h73.387v-522.24zM512 139.093l-119.467 119.467 30.72 30.72 88.747-88.747 88.747 88.747 30.72-30.72-119.467-119.467zM634.88 70.827h-244.053v42.667h244.053v-42.667zM375.467 446.293l73.387 105.813h-69.973v23.893h102.4v-25.6l-73.387-105.813h75.093v-23.893h-107.52v25.6zM498.347 576h30.72v-155.307h-30.72v155.307zM552.96 576h39.253c34.133 0 64.853-10.24 64.853-46.080s-25.6-49.493-59.733-49.493h-13.653v-58.027h-30.72v153.6zM583.68 504.32h10.24c15.36 0 29.013 5.12 29.013 23.893s-13.653 23.893-29.013 23.893h-10.24v-47.787z" />
<glyph unicode="&#xe923;" glyph-name="home" d="M783.36 451.413l-262.827 206.507c-6.827 5.12-17.067 5.12-25.6 0l-266.24-213.333c-6.827-5.12-6.827-15.36-1.707-20.48 3.413-3.413 6.827-5.12 11.947-5.12 3.413 0 6.827 1.707 8.533 3.413l58.027 46.080v-233.813c0-11.947 8.533-20.48 20.48-20.48h363.52c11.947 0 20.48 8.533 20.48 20.48v235.52l54.613-42.667c6.827-5.12 15.36-3.413 20.48 1.707 5.12 6.827 5.12 17.067-1.707 22.187zM334.507 244.907v247.467l172.373 138.24 172.373-136.533v-249.173h-344.747z" />
<glyph unicode="&#xe924;" glyph-name="info" d="M512 601.6c-85.333 0-153.6-68.267-153.6-153.6s68.267-153.6 153.6-153.6 153.6 68.267 153.6 153.6-69.973 153.6-153.6 153.6zM535.893 359.253h-47.787v110.933h47.787v-110.933zM512 485.547c-15.36 0-27.307 11.947-27.307 27.307s11.947 27.307 27.307 27.307c15.36 0 27.307-11.947 27.307-27.307s-13.653-27.307-27.307-27.307z" />
<glyph unicode="&#xe925;" glyph-name="language_in" d="M512 678.4c-128 0-230.4-102.4-230.4-230.4s102.4-230.4 230.4-230.4 230.4 102.4 230.4 230.4-102.4 230.4-230.4 230.4zM512 251.733c-109.227 0-196.267 87.040-196.267 196.267 0 6.827 0 15.36 1.707 22.187 10.24-1.707 22.187-6.827 32.427-13.653 20.48-15.36 35.84-54.613 34.133-68.267s1.707-29.013 17.067-51.2 51.2-20.48 51.2-34.133 13.653-32.427 34.133-34.133 30.72 29.013 17.067 34.133c-15.36 5.12-13.653 13.653 0 34.133s3.413 76.8-17.067 68.267c-29.013-10.24-68.267 17.067-68.267 51.2s17.067 30.72 34.133 51.2 18.773-1.707 34.133 17.067c15.36 18.773-22.187 34.133-34.133 34.133s-52.907-20.48-51.2 0c1.707 20.48 44.373 42.667 51.2 51.2 5.12 5.12 3.413 17.067 1.707 25.6 18.773 5.12 37.547 8.533 58.027 8.533 44.373 0 85.333-15.36 117.76-39.253-17.067-8.533-49.493-23.893-58.027-29.013-11.947-6.827-46.080-35.84-34.133-51.2s68.267-34.133 68.267-34.133-23.893-13.653-51.2-17.067c-27.307-3.413-20.48-71.68 0-68.267s52.907-27.307 51.2-34.133c-1.707-6.827-20.48-34.133-17.067-51.2s13.653-6.827 34.133 17.067 54.613 56.32 51.2 102.4c-3.413 46.080 11.947 44.373 17.067 51.2 1.707 1.707 6.827 3.413 11.947 3.413 3.413-15.36 5.12-30.72 5.12-46.080 0-109.227-87.040-196.267-196.267-196.267zM520.533 576c-5.12-17.067-22.187 0-34.133 17.067s-6.827 23.893 0 34.133c6.827 10.24 61.44-10.24 68.267-17.067s-29.013-17.067-34.133-34.133z" />
<glyph unicode="&#xe926;" glyph-name="language_out" d="M486.4 593.067c-11.947 17.067-6.827 23.893 0 34.133s61.44-10.24 68.267-17.067c6.827-6.827-29.013-17.067-34.133-34.133s-22.187 0-34.133 17.067zM742.4 448c0-128-102.4-230.4-230.4-230.4-54.613 0-105.813 18.773-145.067 51.2l-47.787-47.787-34.133 34.133 47.787 47.787c-32.427 39.253-51.2 90.453-51.2 145.067 0 128 102.4 230.4 230.4 230.4 54.613 0 105.813-18.773 145.067-51.2l47.787 47.787 34.133-34.133-47.787-47.787c32.427-39.253 51.2-90.453 51.2-145.067zM592.213 495.787l-17.067-17.067c17.067 5.12 30.72 11.947 30.72 11.947s-5.12 1.707-13.653 5.12zM401.067 558.933c-1.707-20.48 39.253 0 51.2 0s49.493-15.36 34.133-34.133c-15.36-18.773-17.067 3.413-34.133-17.067s-34.133-17.067-34.133-51.2c0-18.773 10.24-34.133 25.6-42.667l104.107 104.107c-3.413 3.413-6.827 5.12-8.533 8.533-11.947 15.36 22.187 44.373 34.133 51.2 8.533 5.12 40.96 20.48 58.027 29.013-32.427 23.893-73.387 39.253-117.76 39.253-20.48 0-39.253-3.413-58.027-8.533 1.707-8.533 3.413-20.48-1.707-25.6-8.533-11.947-51.2-32.427-52.907-52.907zM356.693 326.827l30.72 30.72c-3.413 11.947-3.413 22.187-3.413 30.72 1.707 13.653-13.653 52.907-34.133 68.267-10.24 6.827-22.187 11.947-32.427 13.653 0-6.827-1.707-15.36-1.707-22.187 0-46.080 15.36-87.040 40.96-121.173zM708.267 448c0 15.36-1.707 30.72-5.12 46.080-5.12 0-10.24 0-11.947-3.413-5.12-6.827-20.48-5.12-17.067-51.2s-30.72-78.507-51.2-102.4c-20.48-23.893-30.72-34.133-34.133-17.067s15.36 44.373 17.067 51.2c1.707 6.827-30.72 37.547-51.2 34.133-10.24-1.707-17.067 15.36-17.067 34.133l-37.547-37.547c11.947-11.947 13.653-49.493 3.413-64.853-13.653-20.48-15.36-29.013 0-34.133 13.653-5.12 3.413-35.84-17.067-34.133s-34.133 20.48-34.133 34.133c0 8.533-17.067 11.947-32.427 18.773l-29.013-29.013c34.133-25.6 75.093-40.96 121.173-40.96 109.227 0 196.267 87.040 196.267 196.267z" />
<glyph unicode="&#xe927;" glyph-name="list" d="M699.733 538.453h-244.053v42.667h244.053v-42.667zM699.733 458.24h-244.053v-42.667h244.053v42.667zM699.733 335.36h-244.053v-42.667h244.053v42.667zM368.64 514.56c25.6 0 46.080 20.48 46.080 46.080s-20.48 46.080-46.080 46.080-46.080-20.48-46.080-46.080 20.48-46.080 46.080-46.080zM368.64 482.133c-25.6 0-46.080-20.48-46.080-46.080s20.48-46.080 46.080-46.080 46.080 20.48 46.080 46.080-22.187 46.080-46.080 46.080zM368.64 359.253c-25.6 0-46.080-20.48-46.080-46.080s20.48-46.080 46.080-46.080 46.080 20.48 46.080 46.080-22.187 46.080-46.080 46.080z" />
<glyph unicode="&#xe928;" glyph-name="location" d="M564.907 488.96c0-30.72-25.6-56.32-56.32-56.32s-56.32 25.6-56.32 56.32c0 30.72 25.6 56.32 56.32 56.32 30.72 1.707 56.32-23.893 56.32-56.32zM682.667 488.96c0-39.253-13.653-76.8-37.547-107.52l-136.533-170.667-136.533 170.667c-6.827 8.533-11.947 17.067-17.067 27.307-1.707 5.12-5.12 8.533-6.827 13.653-8.533 20.48-13.653 44.373-13.653 66.56 0 95.573 78.507 174.080 174.080 174.080s174.080-78.507 174.080-174.080zM651.947 488.96c0 78.507-64.853 143.36-143.36 143.36s-143.36-64.853-143.36-143.36c0-18.773 3.413-37.547 11.947-56.32 1.707-3.413 3.413-6.827 5.12-11.947 3.413-8.533 8.533-15.36 13.653-22.187l112.64-141.653 112.64 141.653c20.48 27.307 30.72 58.027 30.72 90.453z" />
<glyph unicode="&#xe929;" glyph-name="login_in" d="M360.107 524.8c0-83.627 68.267-153.6 151.893-153.6 85.333 0 151.893 68.267 151.893 153.6 0 83.627-68.267 153.6-151.893 153.6s-151.893-68.267-151.893-153.6zM512 630.613c58.027 0 104.107-47.787 104.107-104.107 0-58.027-47.787-104.107-104.107-104.107-58.027 0-104.107 47.787-104.107 104.107s46.080 104.107 104.107 104.107zM742.4 217.6h-51.2c0 46.080-17.067 87.040-46.080 119.467-35.84-27.307-81.92-42.667-133.12-42.667-49.493 0-95.573 15.36-133.12 42.667-29.013-32.427-46.080-73.387-46.080-119.467h-51.2c0 76.8 37.547 145.067 97.28 187.733 32.427-37.547 80.213-59.733 133.12-59.733s100.693 23.893 133.12 59.733c59.733-42.667 97.28-110.933 97.28-187.733z" />
<glyph unicode="&#xe92a;" glyph-name="login_out" d="M645.12 405.333c-32.427-37.547-80.213-59.733-133.12-59.733-20.48 0-40.96 3.413-59.733 10.24l22.187 22.187c11.947-3.413 23.893-5.12 37.547-5.12 85.333 0 151.893 68.267 151.893 153.6 0 11.947-1.707 25.6-5.12 37.547l78.507 78.507-34.133 34.133-66.56-66.56c-27.307 40.96-73.387 68.267-128 68.267-83.627 0-151.893-68.267-151.893-153.6 0-52.907 27.307-100.693 68.267-128l-18.773-18.773c-11.947 8.533-22.187 17.067-30.72 27.307-49.493-35.84-83.627-88.747-93.867-150.187-1.707-11.947-3.413-23.893-3.413-37.547h51.2c0 5.12 0 11.947 1.707 17.067l81.92 81.92c30.72-13.653 64.853-22.187 98.987-22.187 51.2 0 97.28 15.36 134.827 42.667 29.013-32.427 46.080-73.387 46.080-119.467h51.2c-1.707 76.8-39.253 145.067-98.987 187.733zM518.827 420.693l97.28 97.28c-3.413-51.2-46.080-93.867-97.28-97.28zM407.893 524.8c0 58.027 47.787 104.107 104.107 104.107 39.253 0 75.093-22.187 92.16-56.32l-141.653-141.653c-32.427 20.48-54.613 54.613-54.613 93.867z" />
<glyph unicode="&#xe92b;" glyph-name="mail" d="M215.040 632.32v-390.827h578.56v390.827h-578.56zM730.453 601.6l-206.507-206.507c-8.533-8.533-22.187-8.533-30.72 0l-213.333 206.507h450.56zM245.76 272.213v320.853l226.987-220.16c10.24-10.24 22.187-15.36 35.84-15.36s27.307 5.12 35.84 15.36l218.453 220.16v-320.853h-517.12z" />
<glyph unicode="&#xe92c;" glyph-name="menu_in" d="M742.4 627.2h-460.8v51.2h460.8v-51.2zM742.4 541.867h-460.8v-51.2h460.8v51.2zM742.4 268.8h-460.8v-51.2h460.8v51.2zM742.4 405.333h-460.8v-51.2h460.8v51.2z" />
<glyph unicode="&#xe92d;" glyph-name="menu_out" d="M481.28 446.293l-199.68 201.387 30.72 30.72 199.68-201.387 199.68 197.973 30.72-30.72-199.68-197.973 196.267-197.973-30.72-30.72-196.267 197.973-197.973-197.973-30.72 30.72 197.973 197.973z" />
<glyph unicode="&#xe92e;" glyph-name="phone" d="M640 721.067h-252.587c-35.84 0-66.56-29.013-66.56-66.56v-438.613c0-35.84 29.013-66.56 66.56-66.56h252.587c35.84 0 66.56 29.013 66.56 66.56v438.613c0 37.547-30.72 66.56-66.56 66.56zM675.84 217.6c0-20.48-17.067-35.84-35.84-35.84h-252.587c-20.48 0-35.84 17.067-35.84 35.84v436.907c0 20.48 17.067 35.84 35.84 35.84h252.587c20.48 0 35.84-17.067 35.84-35.84v-436.907zM546.133 256.853c0-17.067-15.36-32.427-32.427-32.427s-32.427 15.36-32.427 32.427c0 17.067 15.36 32.427 32.427 32.427s32.427-15.36 32.427-32.427zM599.040 637.44h-170.667c-13.653 0-23.893-10.24-23.893-23.893v-271.36c0-13.653 10.24-23.893 23.893-23.893h170.667c13.653 0 23.893 10.24 23.893 23.893v271.36c0 13.653-10.24 23.893-23.893 23.893zM592.213 349.013h-158.72v257.707h158.72v-257.707z" />
<glyph unicode="&#xe92f;" glyph-name="print" d="M356.693 432.64c0-17.067-15.36-32.427-32.427-32.427s-32.427 15.36-32.427 32.427c0 17.067 15.36 32.427 32.427 32.427 18.773 0 32.427-15.36 32.427-32.427zM800.427 533.333v-172.373c0-35.84-29.013-66.56-66.56-66.56h-18.773v-39.253c0-13.653-10.24-23.893-23.893-23.893h-273.067c-13.653 0-23.893 10.24-23.893 23.893v39.253h-104.107c-35.84 0-66.56 29.013-66.56 66.56v172.373c0 35.84 29.013 66.56 66.56 66.56h443.733c37.547-1.707 66.56-30.72 66.56-66.56zM686.080 437.76h-262.827v-175.787h262.827v175.787zM769.707 533.333c0 20.48-17.067 35.84-35.84 35.84h-443.733c-20.48 0-35.84-17.067-35.84-35.84v-172.373c0-20.48 17.067-35.84 35.84-35.84h104.107v119.467c0 13.653 10.24 23.893 23.893 23.893h274.773c13.653 0 23.893-10.24 23.893-23.893v-119.467h17.067c20.48 0 35.84 17.067 35.84 35.84v172.373zM715.093 642.56h-322.56v-30.72h324.267v30.72z" />
<glyph unicode="&#xe930;" glyph-name="search_in" d="M471.040 297.813c44.373 0 85.333 15.36 117.76 40.96l119.467-121.173 34.133 34.133-121.173 119.467c25.6 32.427 40.96 73.387 40.96 117.76 0 104.107-85.333 189.44-189.44 189.44s-189.44-85.333-189.44-189.44 83.627-191.147 187.733-191.147zM471.040 628.907c78.507 0 141.653-63.147 141.653-141.653s-63.147-141.653-141.653-141.653c-78.507 0-141.653 63.147-141.653 141.653 1.707 78.507 64.853 141.653 141.653 141.653z" />
<glyph unicode="&#xe931;" glyph-name="search_out" d="M621.227 371.2c25.6 32.427 40.96 73.387 40.96 117.76 0 22.187-3.413 44.373-11.947 64.853l88.747 88.747-34.133 34.133-78.507-78.507c-34.133 49.493-90.453 81.92-155.307 81.92-104.107 0-189.44-85.333-189.44-189.44 0-64.853 32.427-121.173 81.92-155.307l-78.507-78.507 34.133-34.133 88.747 88.747c20.48-6.827 40.96-11.947 64.853-11.947 44.373 0 85.333 15.36 117.76 40.96l119.467-121.173 34.133 34.133-122.88 117.76zM331.093 488.96c0 78.507 63.147 141.653 141.653 141.653 51.2 0 95.573-27.307 121.173-68.267l-196.267-194.56c-40.96 25.6-66.56 69.973-66.56 121.173zM471.040 347.307c-8.533 0-17.067 1.707-23.893 1.707l163.84 163.84c1.707-8.533 1.707-15.36 1.707-23.893 0-78.507-63.147-141.653-141.653-141.653z" />
<glyph unicode="&#xe932;" glyph-name="search_small" d="M680.96 282.453l-87.040 87.040c20.48 23.893 32.427 56.32 32.427 90.453 0 78.507-63.147 141.653-141.653 141.653s-141.653-63.147-141.653-141.653 63.147-141.653 141.653-141.653c30.72 0 61.44 10.24 83.627 27.307l87.040-87.040 25.6 23.893zM484.693 352.427c-59.733 0-107.52 47.787-107.52 107.52s47.787 107.52 107.52 107.52 107.52-47.787 107.52-107.52-47.787-107.52-107.52-107.52z" />
<glyph unicode="&#xe933;" glyph-name="social_facebook" d="M599.040 512.853l-6.827-64.853h-51.2v-187.733h-76.8v187.733h-37.547v64.853h37.547v39.253c0 52.907 22.187 83.627 83.627 83.627h51.2v-64.853h-32.427c-23.893 0-25.6-8.533-25.6-25.6v-32.427h58.027z" />
<glyph unicode="&#xe934;" glyph-name="social_googleplus" d="M583.68 473.6c3.413-52.907-3.413-107.52-37.547-150.187-46.080-59.733-133.12-76.8-203.093-54.613-75.093 23.893-128 98.987-126.293 177.493-3.413 97.28 81.92 186.027 179.2 187.733 49.493 3.413 97.28-15.36 134.827-46.080-15.36-17.067-30.72-34.133-47.787-49.493-32.427 20.48-73.387 35.84-110.933 22.187-61.44-17.067-100.693-90.453-76.8-151.893 18.773-63.147 95.573-98.987 157.013-71.68 30.72 11.947 52.907 39.253 61.44 71.68-35.84 0-71.68 0-107.52 1.707v63.147c58.027 1.707 117.76 1.707 177.493 0zM754.347 475.307v52.907h-52.907v-52.907h-54.613v-52.907h54.613v-52.907h52.907v52.907h54.613v52.907h-54.613z" />
<glyph unicode="&#xe935;" glyph-name="social_linkedin" d="M414.72 591.36c0-25.6-20.48-44.373-44.373-44.373-25.6 0-44.373 20.48-44.373 44.373 0 25.6 20.48 44.373 44.373 44.373s44.373-20.48 44.373-44.373zM331.093 260.267h78.507v250.88h-78.507v-250.88zM605.867 517.973c-37.547 0-63.147-20.48-73.387-40.96h-1.707v34.133h-75.093v-250.88h78.507v124.587c0 32.427 6.827 64.853 46.080 64.853s40.96-37.547 40.96-66.56v-122.88h78.507v138.24c0 66.56-15.36 119.467-93.867 119.467z" />
<glyph unicode="&#xe936;" glyph-name="social_twitter" d="M698.027 541.867v-11.947c1.707-124.587-95.573-269.653-273.067-269.653-54.613 0-104.107 15.36-146.773 42.667 6.827-1.707 15.36-1.707 22.187-1.707 44.373 0 87.040 15.36 119.467 40.96-42.667 0-76.8 29.013-90.453 66.56 5.12-1.707 11.947-1.707 18.773-1.707 8.533 0 17.067 1.707 25.6 3.413-44.373 8.533-76.8 47.787-76.8 92.16v1.707c13.653-6.827 27.307-11.947 44.373-11.947-25.6 17.067-42.667 46.080-42.667 78.507 0 17.067 5.12 34.133 13.653 47.787 47.787-58.027 117.76-95.573 197.973-98.987-1.707 6.827-1.707 13.653-1.707 22.187 0 51.2 40.96 93.867 93.867 95.573h1.707c27.307 0 52.907-11.947 69.973-30.72 22.187 3.413 42.667 11.947 61.44 22.187-6.827-22.187-22.187-40.96-42.667-52.907 18.773 1.707 37.547 6.827 54.613 15.36-13.653-18.773-30.72-35.84-49.493-49.493z" />
<glyph unicode="&#xe937;" glyph-name="social_xing" d="M658.773 603.307c-35.84-64.853-71.68-128-107.52-191.147 22.187-42.667 46.080-83.627 69.973-128 3.413-5.12 8.533-13.653 6.827-18.773-3.413-6.827-18.773-3.413-30.72-3.413-13.653 0-27.307-3.413-35.84 0-10.24 3.413-18.773 27.307-23.893 35.84-20.48 37.547-42.667 76.8-63.147 114.347 34.133 63.147 75.093 133.12 112.64 197.973 5.12 10.24 10.24 25.6 23.893 25.6h30.72c10.24 0 27.307 1.707 29.013-3.413 3.413-8.533-8.533-22.187-11.947-29.013zM455.68 543.573c-5.12 8.533-8.533 18.773-18.773 18.773h-56.32c-3.413 0-5.12-1.707-6.827-3.413-1.707-8.533 3.413-13.653 6.827-18.773 6.827-11.947 13.653-22.187 20.48-34.133 1.707-3.413 10.24-13.653 8.533-18.773 0-3.413-5.12-8.533-6.827-11.947-15.36-29.013-29.013-51.2-44.373-80.213-1.707-3.413-6.827-8.533-5.12-15.36 0-3.413 5.12-5.12 6.827-5.12h56.32c11.947 1.707 17.067 17.067 22.187 27.307 17.067 29.013 34.133 59.733 49.493 87.040-10.24 15.36-22.187 35.84-32.427 54.613z" />
<glyph unicode="&#xe938;" glyph-name="social_youtube" d="M766.293 553.813s-5.12 37.547-20.48 52.907c-20.48 22.187-42.667 22.187-52.907 22.187-71.68 6.827-180.907 6.827-180.907 6.827s-109.227 0-182.613-5.12c-10.24-1.707-32.427-1.707-52.907-22.187-15.36-17.067-20.48-52.907-20.48-52.907s-5.12-35.84-5.12-80.213v-52.907c0-42.667 5.12-81.92 5.12-81.92s5.12-37.547 20.48-52.907c20.48-20.48 46.080-20.48 58.027-22.187 42.667-5.12 177.493-5.12 177.493-5.12s109.227-1.707 182.613 3.413c10.24 1.707 32.427 1.707 52.907 22.187 15.36 17.067 20.48 52.907 20.48 52.907s5.12 37.547 5.12 80.213v52.907c-1.707 46.080-6.827 81.92-6.827 81.92zM442.027 376.32v143.36l138.24-71.68-138.24-71.68z" />
</font>
</defs>
</svg>
